[ฝรั่ง]-[ใหม่!ร้อนๆที่รอคอย CtHts..นำเสนอ~] Life of Pi (2012) : ชีวิตอัศจรรย์ของพาย [Encode.DTS.1080p@ZEZA]-[Modified]-[เสียงอังกฤษ DTS+พากย์ไทย 5.1]-[บรรยายไทย+อังกฤษ]{เสียงซับไทย Bluray Maste+ซับไทย

ดาวน์โหลดดาวน์โหลดไฟล์นี้
ดาวน์โหลดซิบดาวน์โหลดไฟล์นี้ (Zip)
แม็กเน็ทลิ้งดาวน์โหลดไฟล์นี้ (Magnet)
ภาพตัวอย่างhttp://upload.armuay.com/img/2013-02-23/16-10-54_0.563626.jpg


รื่องราวของเด็กหนุ่มที่ชื่อ พาย พาเทล ชาวอินเดียอายุ 16 จากเมือง พอนดิเชอร์รี่ (Pondicherry) เขาได้โดยสารมากับเรือลำหนึ่งซึ่งได้บรรทุกสัตว์หลายชนิดจุดมุ่งหมายคือไปโตรอนโต แต่แล้วเรือลำนี้ก็ได้เกิดอับปางลงกลางทะเล พายเขาได้รอดชีวิตมาได้ ต้องหาหนทางที่จะกลับเข้าฝั่งโดยเรือชูชีพหนึ่งลำ ภายในเรือยังมี เสือโคร่งเบงกอล ลิงอุรังอุตัง, ม้าลาย และไฮยีนา เขาต้องทำอย่างไรติดตามการผจญภัยของเขาได้กับหนังเรื่อง Life of Pi

Format                                   : Matroska
Format version                           : Version 4 / Version 2
File size                                : 9.15 GiB
Duration                                 : 2h 6mn
Overall bit rate                         : 10.3 Mbps
Movie name                               : Life.of.Pi.2012.1080p.Bluray.x264.DTS_by NongZEZA@CtHts
Encoded date                             : UTC 2010-02-22 21:41:31
Writing application                      : mkvmerge v5.9.0 ( On The Loose ) built on Dec  9 2012 15:37:01
Writing library                          : libebml v1.3.0 + libmatroska v1.4.0

Video
ID                                       : 1
Format                                   : AVC
Format/Info                              : Advanced Video Codec
Format profile                           : [email protected]
Format settings, CABAC                   : Yes
Format settings, ReFrames                : 4 frames
Codec ID                                 : V_MPEG4/ISO/AVC
Duration                                 : 2h 6mn
Bit rate                                 : 8 344 Kbps
Width                                    : 1 920 pixels
Height                                   : 1 040 pixels
Display aspect ratio                     : 1.85:1
Frame rate mode                          : Constant
Frame rate                               : 23.976 fps
Color space                              : YUV
Chroma subsampling                       : 4:2:0
Bit depth                                : 8 bits
Scan type                                : Progressive
Bits/(Pixel*Frame)                       : 0.174
Stream size                              : 7.24 GiB (79%)
Default                                  : Yes
Forced                                   : No

Audio #1
ID                                       : 2
Format                                   : DTS
Format/Info                              : Digital Theater Systems
Format profile                           : ES
Mode                                     : 16
Format settings, Endianness              : Big
Codec ID                                 : A_DTS
Duration                                 : 2h 6mn
Bit rate mode                            : Constant
Bit rate                                 : 1 509 Kbps
Channel(s)                               : 6 channels
Channel positions                        : Front: L C R, Side: L R, LFE
Sampling rate                            : 48.0 KHz
Bit depth                                : 24 bits
Compression mode                         : Lossy
Stream size                              : 1.34 GiB (15%)
Title                                    : English DTS
Language                                 : English
Default                                  : No
Forced                                   : No

Audio #2
ID                                       : 3
Format                                   : AC-3
Format/Info                              : Audio Coding 3
Mode extension                           : CM (complete main)
Format settings, Endianness              : Big
Codec ID                                 : A_AC3
Duration                                 : 2h 6mn
Bit rate mode                            : Constant
Bit rate                                 : 448 Kbps
Channel(s)                               : 6 channels
Channel positions                        : Front: L C R, Side: L R, LFE
Sampling rate                            : 48.0 KHz
Bit depth                                : 16 bits
Compression mode                         : Lossy
Stream size                              : 407 MiB (4%)
Title                                    : Thai BluRay Master
Language                                 : Thai
Default                                  : Yes
Forced                                   : Yes

Text #1
ID                                       : 4
Format                                   : VobSub
Muxing mode                              : zlib
Codec ID                                 : S_VOBSUB
Codec ID/Info                            : The same subtitle format used on DVDs
Title                                    : Thai 480p From BluRay Master
Language                                 : Thai
Default                                  : No
Forced                                   : No

Text #2
ID                                       : 5
Format                                   : VobSub
Muxing mode                              : zlib
Codec ID                                 : S_VOBSUB
Codec ID/Info                            : The same subtitle format used on DVDs
Title                                    : Thai 1080p BluRay Master
Language                                 : Thai
Default                                  : Yes
Forced                                   : Yes

Text #3
ID                                       : 6
Format                                   : VobSub
Muxing mode                              : zlib
Codec ID                                 : S_VOBSUB
Codec ID/Info                            : The same subtitle format used on DVDs
Title                                    : Thai 1080p BluRay Master Low
Language                                 : Thai
Default                                  : No
Forced                                   : No

Text #4
ID                                       : 7
Format                                   : VobSub
Muxing mode                              : zlib
Codec ID                                 : S_VOBSUB
Codec ID/Info                            : The same subtitle format used on DVDs
Title                                    : Thai 1080p BluRay Master [Big]
Language                                 : Thai
Default                                  : No
Forced                                   : No

Text #5
ID                                       : 8
Format                                   : PGS
Muxing mode                              : zlib
Codec ID                                 : S_HDMV/PGS
Codec ID/Info                            : The same subtitle format used on BDs/HD-DVDs
Title                                    : Thai PGS
Language                                 : Thai
Default                                  : No
Forced                                   : No

Text #6
ID                                       : 9
Format                                   : VobSub
Muxing mode                              : zlib
Codec ID                                 : S_VOBSUB
Codec ID/Info                            : The same subtitle format used on DVDs
Title                                    : English 1080p
Language                                 : English
Default                                  : No
Forced                                   : No                      

credit : เพื่อนบ้านผู้ใจดี
หมวดหมู่ภาพยนตร์ Hi-Def
ขนาด9.15 GB (9,830,083,996 bytes)
อัพโหลดเมื่อ2013-03-02 08:55:20 (1 ปี)
ปล่อยล่าสุด2014-07-29 21:06:01 (1 เดือน)
โหลดเสร็จ1566 ครั้ง
แบ่งปันโดยgjjunior
เพียร์
0 ปล่อย, 1 โหลด = 1 เพียร์ ( 2014-08-31 22:07:52 )
zircon7103  thank
77 weeks ago
Yee_Duang  THANKS
77 weeks ago
angerra  Thank YOu
77 weeks ago
kenjoy  thanks
77 weeks ago
yai555  thanks
76 weeks ago
bittib  ขอบคุณครับ  :yoyo25:
76 weeks ago
sahabata99  ขอบคุณทุกคนมากๆสำหรับการแบ่งปันครับ
75 weeks ago
kodman199  thankssss
75 weeks ago
chidbigbang  :yoyo51:  :yoyo51:  :yoyo51:  :yoyo51:
67 weeks ago
KaChaIn  ขอบคุนครับ
67 weeks ago
wsinw2000  Thanks :yoyo53:
65 weeks ago
KaoNoon  ช่วยปล่ยอใหม่หน่อยได้ป่าวครับ...
31 weeks ago

1 - 50 | 51 - 62
<< ก่อนหน้า      ถัดไป >>