"สงครามอินทรีเหล็ก" Battle Of Britain (1969) (BDRip 720p) [audio: English DTS] [subtitles: English/Thai]

ดาวน์โหลดDownload.torrent
ภาพตัวอย่างhttp://img.ihere.org/uploads/4b5da8ef2e.jpg


Release date:  15 September 1969 (USA)

Directed by:  Guy Hamilton

Produced by:  Harry Saltzman, S. Benjamin Fisz

Screenplay by:  James Kennaway, Wilfred Greatorex

Based on:  "The Narrow Margin" a book by Derek Wood and Derek Dempster

Starring:  Laurence Olivier, Hein Riess, Trevor Howard, Robert Shaw, Christopher Plummer, Michael Caine, Edward Fox, Susannah York, Ian McShane, Kenneth More, Ralph Richardson, Patrick Wymark, Michael Redgrave, Curd Jürgens, Nigel Patrick

Music by:  Ron Goodwin, William Walton

Cinematography by:  Freddie Young

Editing by:  Bert Bates

Genre:  Action/War

Running time:  02:12:11

IMDb rating:  6.8/10 (10,591 votes)

(Sources: IMDb & Wikipedia)


Battle Of Britain หรือในชื่อไทย "สงครามอินทรีเหล็ก" ภาพยนตร์สงครามอิงประวัติศาสตร์  สร้างจากเรื่องจริงของเหตุการณ์สำคัญครั้งหนึ่งในช่วงเริ่มแรกของสงครามโลกครั้งที่สอง  ในฤดูร้อนของปี 1940 ที่กองทัพอากาศของอังกฤษ Royal Air Force (RAF) พยายามป้องกันการโจมตีทางอากาศของเยอรมันที่มีเป้าหมายที่จะทิ้งระเบิดเหนือกรุงลอนดอน

ภาพยนตร์เรื่องนี้ได้รับคำชื่นชมว่าสร้างได้ตรงกับเหตุการณ์ที่เกิดขึ้นจริงมากเรื่องหนึ่งของสงครามโลกครั้งที่สอง  นำแสดงโดยดาราชั้นนำหลายคนของวงการภาพยนตร์อังกฤษในยุคนั้น  กำกับการแสดงโดย Guy Hamilton เจ้าของผลงานภาพยนตร์ James Bond หลายๆเรื่อง


Quality:  BDRip

File Format:  mkv

Video codec:  x.264

Audio codec:  DTS

Video Resoluton:  1280x544 (2.35:1) / 23.976 fps / 6,333 kbps / 0.379 bit/pixel

Audio:  English; 6 ch (Front: L C R, Side: L R, LFE) / 48.0 kHz / 755 kbps

Subtitles:  English/Thai (on external files)


Special thanks to the original uploader and especially "tre2004" for Thai subtitle.



Media Info:

General

Unique ID                      : 253892857093037992578378034010316408719 (0xBF01FC5135817BEBACA4FF9D5AB5078F)

Complete name                  : E:\Movies\Battle Of Britain (1969) (BDRip 720p)\Battle.of.Britain.1969.720p.BluRay.DTS.x264.Eng.HDclub.mkv

Format                         : Matroska

Format version                 : Version 4 / Version 2

File size                      : 6.56 GiB

Duration                       : 2h 12mn

Overall bit rate               : 7 103 Kbps

Movie name                     : HDclub

Encoded date                   : UTC 2013-03-20 14:22:45

Writing application            : mkvmerge v6.0.0 ('Coming Up For Air') built on Jan 20 2013 09:52:00

Writing library                : libebml v1.3.0 + libmatroska v1.4.0

Video

ID                             : 1

Format                         : AVC

Format/Info                    : Advanced Video Codec

Format profile                 : High@L4.1

Format settings, CABAC         : Yes

Format settings, ReFrames      : 5 frames

Codec ID                       : V_MPEG4/ISO/AVC

Duration                       : 2h 12mn

Bit rate                       : 6 333 Kbps

Width                          : 1 280 pixels

Height                         : 544 pixels

Display aspect ratio           : 2.35:1

Frame rate                     : 23.976 fps

Color space                    : YUV

Chroma subsampling             : 4:2:0

Bit depth                      : 8 bits

Scan type                      : Progressive

Bits/(Pixel*Frame)             : 0.379

Stream size                    : 5.73 GiB (87%)

Title                          : Battle of Britain

Writing library                : x264 core 60 r889M 2c59717

Encoding settings              : cabac=1 / ref=5 / deblock=1:-3:-3 / analyse=0x3:0x113 / me=umh / subme=7 / rdcmp=psy / brdo=1 / mixed_ref=1 / me_range=16 / chroma_me=1 / trellis=0 / 8x8dct=1 / cqm=2 / deadzone=10,2 / chroma_qp_offset=0 / threads=3 / nr=0 / decimate=1 / mbaff=0 / bframes=5 / b_pyramid=1 / b_adapt=1 / b_bias=0 / direct=3 / wpredb=1 / bime=1 / keyint=250 / keyint_min=25 / scenecut=40(pre) / rc=2pass / bitrate=6333 / ratetol=2.0 / rceq='blurCplx^(1-qComp)' / qcomp=1.00 / qpmin=10 / qpmax=51 / qpstep=4 / cplxblur=20.0 / qblur=0.5 / ip_ratio=1.40 / pb_ratio=1.30 / aq=2:1.00

Language                       : English

Audio

ID                             : 2

Format                         : DTS

Format/Info                    : Digital Theater Systems

Codec ID                       : A_DTS

Duration                       : 2h 12mn

Bit rate mode                  : Constant

Bit rate                       : 755 Kbps

Channel(s)                     : 6 channels

Channel positions              : Front: L C R, Side: L R, LFE

Sampling rate                  : 48.0 KHz

Bit depth                      : 24 bits

Compression mode               : Lossy

Stream size                    : 713 MiB (11%)

Title                          : DTS 5.1 @ 1.5Mbps

Language                       : English

Text

ID                             : 3

Format                         : UTF-8

Codec ID                       : S_TEXT/UTF8

Codec ID/Info                  : UTF-8 Plain Text

Language                       : English

หมวดหมู่ภาพยนตร์ Hi-Def
ขนาด6.56 GB (7,046,409,681 bytes)
อัพโหลดเมื่อ2013-05-03 20:26:10
แบ่งปันโดยMeTaL_GuRu
จำนวนไฟล์
5 ไฟล์
เพียร์
1 ปล่อย, 0 โหลด = 1 เพียร์ ( ข้อมูลเมื่อเวลา 2014-04-12 18:49:56 )
mdkbit  :yoyo17:  :yoyo18:  :yoyo16:
50 weeks ago
simone  :yoyo84: :yoyo58:
50 weeks ago
jobjab  ขอบคุณมากครับ
หนังอิงประวัติศาสตร์นี่ชอบมาก
หนังยุคนั้นยาวๆทั้งนั้น ดูในโรงจะมีพักกลางเรื่องด้วย (Intermission) เรื่องนี้ยังไม่เคยดู แต่คิดว่าคงเช่นเดียวกัน
50 weeks ago
Lps_Ay  :yoyo81: ขอบคุณฮับๆๆๆ
50 weeks ago
tomly  Thank you very much.
50 weeks ago
charmi69  :yoyo2:
50 weeks ago
JC2532  :yoyo58:  :yoyo65:
50 weeks ago
Ptanfun  Thanks
50 weeks ago
aoslipknot  Thank You  :yoyo66:
50 weeks ago
raviphas  THANKS
49 weeks ago
Chin  Thanks :yoyo46:
49 weeks ago
Saijume  thank :yoyo75:  :yoyo75:
49 weeks ago
udombo  ขอบคุณครับ
48 weeks ago
teelorlor  :yoyo43:  :yoyo43:  :yoyo43:  :yoyo43:  :yoyo43:  :yoyo43:
48 weeks ago

1 - 14
<< ก่อนหน้า      ถัดไป >>