"กลัวทำไมถ้าใจเป็นของเธอ" The Lover (1992) (BDRip 1080p) [audio: English DTS] [subtitles: English/Thai]

ดาวน์โหลดดาวน์โหลดไฟล์นี้
ดาวน์โหลดซิบดาวน์โหลดไฟล์นี้ (Zip)
แม็กเน็ทลิ้งดาวน์โหลดไฟล์นี้ (Magnet)
ภาพตัวอย่างhttp://www.tshared.com/pic/1373375066.jpg


Release date:  January 22, 1992 (France)
Directed by:  Jean-Jacques Annaud
Produced by:  Claude Berri
Screenplay by:  Jean-Jacques Annaud, Gérard Brach
Based on:  "The Lover" 1984 novel by Marguerite Duras
Narrated by:  Jeanne Moreau
Starring:  Tony Leung Ka Fai, Jane March
Music by:  Gabriel Yared
Cinematography by:  Robert Fraisse
Editing by:  Robert Fraisse
Genre:  Biography/Drama/Romance
Running time:  01:55:33
IMDB rating:  6.7/10 (10,452 votes)
(Sources: IMDb & Wikipedia)


".....ฉายในปี 1992 ครับ.....ผมได้ดูหลังจากนั้น..ไม่รู้ในปีไหนแล้ว...จำไม่ได้...แต่รู้สึกว่าจะซื้อเก็บเป็น DVD ไว้ที่บ้านด้วย...แต่ก็ไม่ได้ขุดมาดูนานแล้ว...
หนังเรื่องนี้ติดเรท R ทำให้หนังถูกฉายในวงแคบลง แต่ผู้ชมก็ยังได้ดูอยู่ดี..เรทไปก็เท่านั้นอ่ะ
หนังถูกวิจารณ์หลายแง่มุม ทั้งในแง่บวก แง่ลบ อย่างหนักหน่วง และอย่างประณีประนอม
แต่อย่างไรก็ตามถือว่าเป็นหนังรักที่มีความ erotic (ความใคร่) เจือปนอยู่มาก อย่างหลีกเลี่ยงไม่ได้...ถ้าใครดูแล้วก็คาดว่าคงคิดเช่นเดียวกันครับ...
บทหนังดัดแปลงมาจากชีวิตจริงของนักเขียนชาวฝรั่งเศส Marguerite Duras ซึ่งต่อมาเสียชีวิตลงเมื่อปี 1996 (เป็นนักเขียนที่โด่งดังมากในฝรั่งเศส)
บางคนบอกว่าหนังไม่มีอะไร เป็นหนังโป๊แบบ soft porn ทั่วๆไปที่พยายามจะถ่ายให้มันดูเป็นศิลปะ....แต่ผมว่า...ถ้ามองลงไปในเนื้อหา (ที่เป็นเรื่องราวในประวัติศาสตร์อินโดจีน-เวียดนาม ประมาณ 1920s ในขณะที่ตกอยู่ในอาณานิคมฝรั่งเศส) มันมีอะไรมากกว่า หนังโป๊ทั่วๆไป
ไม่ใช่หนังรักแบบ ธรรมด๊า ธรรมดา....
ไม่ใช่หนังรักต่างชาติ ต่างภาษา ต่างวัฒนธรรม ซะทีเดียว....
ไม่ใช่หนังรักแบบโศกนาฏกรรมเต็มพิกัด....
ไม่ใช่หนังรักย้อนยุค ของชายหนุ่มผู้มั่งคั่ง กับเด็กสาวผู้อาภัพ...
และก็ไม่ใช่หนังรัก ที่ยั่วยุกามรมณ์ เต็มไปด้วยฉากราคะ
แต่เป็นหนังรักแบบที่ใครได้ดูแล้ว....ต้องมีคำถามเกิดขึ้น..เกี่ยวกับคำว่า "สูญเสีย"
อาจจะต้องดูซัก 2-3 รอบครับ...จะได้รู้สึกถึงอารมณ์หนังแบบนี้...ถ้าชอบก็ชอบ...ไม่ชอบก็ได้เขวี้ยงทิ้งกันเลยล่ะ
อืมม...มีบทเพลงของ Frederick Chopin บรรเลงในอยู่หนังซะด้วยสิครับ..."

(ที่มา: http://www.acousticthai.net/community/showthread.php?tid=748  ขออนุญาตและขอบคุณผู้เขียนมา ณ ที่นี้ด้วย)


Quality:  BDRip
File Format:  mkv
Video codec:  x.264
Audio codec:  DTS
Video Resoluton:  1920x1040 (16:9) / 24.000 fps / 5,671 kbps / 0.118 bit/pixel
Audio:  English; 2 ch (Front: L R) / 48.0 kHz / 755 kbps
Subtitles:  English/Thai (on external files)


Special thanks to the original uploader and especially "pk553" for Thai subtitle.



Media Info:

General

Unique ID                      : 176721895848540307437059544819140273843 (0x84F3662BB407EE12AC8267C924A626B3)
Complete name                  : E:\Movies\The Lover (1992) (BDRip 1080p)\The.Lover.1992.BDRip.1080p.DTS.Eng.mkv
Format                         : Matroska
Format version                 : Version 4 / Version 2
File size                      : 5.29 GiB
Duration                       : 1h 55mn
Overall bit rate               : 6 556 Kbps
Encoded date                   : UTC 2013-07-08 11:57:28
Writing application            : mkvmerge v6.0.0 ('Coming Up For Air') built on Jan 20 2013 09:52:00
Writing library                : libebml v1.3.0 + libmatroska v1.4.0

Video
ID                             : 1
Format                         : AVC
Format/Info                    : Advanced Video Codec
Format profile                 : [email protected]
Format settings, CABAC         : Yes
Format settings, ReFrames      : 3 frames
Codec ID                       : V_MPEG4/ISO/AVC
Duration                       : 1h 55mn
Bit rate mode                  : Constant
Bit rate                       : 5 671 Kbps
Nominal bit rate               : 6 000 Kbps / 6 000 Kbps
Width                          : 1 920 pixels
Height                         : 1 040 pixels
Display aspect ratio           : 16:9
Frame rate                     : 24.000 fps
Standard                       : NTSC
Color space                    : YUV
Chroma subsampling             : 4:2:0
Bit depth                      : 8 bits
Scan type                      : Progressive
Bits/(Pixel*Frame)             : 0.118
Stream size                    : 4.58 GiB (87%)
Writing library                : x264 core 114
Encoding settings              : cabac=1 / ref=3 / deblock=1:0:0 / analyse=0x3:0x113 / me=hex / subme=7 / psy=1 / psy_rd=1.00:0.00 / mixed_ref=1 / me_range=16 / chroma_me=1 / trellis=1 / 8x8dct=1 / cqm=2 / deadzone=21,11 / fast_pskip=1 / chroma_qp_offset=-2 / threads=6 / sliced_threads=0 / slices=1 / nr=0 / decimate=1 / interlaced=0 / constrained_intra=0 / bframes=3 / b_pyramid=0 / b_adapt=1 / b_bias=0 / direct=1 / weightb=1 / open_gop=0 / weightp=2 / keyint=250 / keyint_min=24 / scenecut=40 / intra_refresh=0 / rc_lookahead=40 / rc=cbr / mbtree=1 / bitrate=6000 / ratetol=1.0 / qcomp=0.60 / qpmin=3 / qpmax=69 / qpstep=4 / vbv_maxrate=6000 / vbv_bufsize=5996 / nal_hrd=cbr / ip_ratio=1.40 / aq=1:1.00
Color primaries                : BT.709-5, BT.1361, IEC 61966-2-4, SMPTE RP177
Transfer characteristics       : BT.709-5, BT.1361
Matrix coefficients            : BT.709-5, BT.1361, IEC 61966-2-4 709, SMPTE RP177

Audio
ID                             : 2
Format                         : DTS
Format/Info                    : Digital Theater Systems
Codec ID                       : A_DTS
Duration                       : 1h 55mn
Bit rate mode                  : Constant
Bit rate                       : 755 Kbps
Channel(s)                     : 2 channels
Channel positions              : Front: L R
Sampling rate                  : 48.0 KHz
Bit depth                      : 16 bits
Compression mode               : Lossy
Stream size                    : 624 MiB (12%)
Language                       : English

Text
ID                             : 3
Format                         : UTF-8
Codec ID                       : S_TEXT/UTF8
Codec ID/Info                  : UTF-8 Plain Text
Language                       : English

Menu
00:00:00.000                   : de: 00:00:00.000
00:02:42.750                   : de: 00:02:42.750
00:09:48.833                   : de: 00:09:48.833
00:18:56.458                   : de: 00:18:56.458
00:26:09.417                   : de: 00:26:09.417
00:32:01.917                   : de: 00:32:01.917
00:43:46.958                   : de: 00:43:46.958
00:53:57.083                   : de: 00:53:57.083
01:03:30.875                   : de: 01:03:30.875
01:13:52.417                   : de: 01:13:52.417
01:20:12.875                   : de: 01:20:12.875
01:28:03.500                   : de: 01:28:03.500
01:36:34.667                   : de: 01:36:34.667
01:46:12.875                   : de: 01:46:12.875
01:52:21.417                   : de: 01:52:21.417

หมวดหมู่ภาพยนตร์ Hi-Def
ขนาด5.29 GB (5,684,200,308 bytes)
อัพโหลดเมื่อ2013-08-11 20:26:32 (1 ปี)
โหลดเสร็จ198 ครั้ง
แบ่งปันโดยMeTaL_GuRu
จำนวนไฟล์
5 ไฟล์
เพียร์
1 ปล่อย, 1 โหลด = 2 เพียร์ ( 2014-08-20 14:59:30 )
kongjok  :yoyo66:
54 weeks ago
Lps_Ay  :yoyo67: ขอบคุณฮับๆๆ
54 weeks ago
fb100000339259872  :yoyo10:  :yoyo15:
54 weeks ago
joesweet77  :yoyo19:  :yoyo19:  :yoyo19:
54 weeks ago
operapee  :yoyo49:  :yoyo49:  :yoyo49:
54 weeks ago
Niphon_Nitikul  :yoyo31:                                                     ขอบคุณมาก ๆ นะครับ                                                   :yoyo31:
54 weeks ago
Danchai_Kmsch  thank you
54 weeks ago
chuhaw  ขอบคุณครับ
54 weeks ago
patanruk  :yoyo41:  :yoyo45:  :yoyo45:
54 weeks ago
jumomania  กว่าจะรู้ว่ารัก ก็สายเกินไป  :yoyo45:  :yoyo45:  :yoyo45:
54 weeks ago
taweesilp  ขอบคุณครับ
54 weeks ago
Autoplays  ขอบคุณครับ  :yoyo57:
54 weeks ago
bm7porlin  thank you ja
31 weeks ago

1 - 13
<< ก่อนหน้า      ถัดไป >>